旅途诱惑专业中文的高

http://xiaosixu.com/yinyue/bfq/02.swf

Exact Audio Copy V1.0 beta 3 from 29. August 2011

EAC extraction logfile from 3. July 2014, 21:37

群星 / 旅途诱惑专业中文的高

Used drive  : SlimtypeDVD A  DS8A5SH   Adapter: 0  ID: 1

Read mode               : Secure

Utilize accurate stream : Yes

Defeat audio cache      : Yes

Make use of C2 pointers : No

Read offset correction                      : 6

Overread into Lead-In and Lead-Out          : No

Fill up missing offset samples with silence : Yes

Delete leading and trailing silent blocks   : No

Null samples used in CRC calculations       : Yes

Used interface                              : Native Win32 interface for Win NT & 2000

Used output format : Internal WAV Routines

Sample format      : 44.100 Hz; 16 Bit; Stereo
TOC of the extracted CD

Track |   Start  |  Length  | Start sector | End sector

———————————————————

1  |  0:00.00 |  7:02.12 |         0    |    31661

2  |  7:02.12 |  4:22.26 |     31662    |    51337

3  | 11:24.38 |  4:42.13 |     51338    |    72500

4  | 16:06.51 |  5:33.71 |     72501    |    97546

5  | 21:40.47 |  5:06.14 |     97547    |   120510

6  | 26:46.61 |  4:44.44 |    120511    |   141854

7  | 31:31.30 |  5:36.01 |    141855    |   167055

8  | 37:07.31 |  4:54.56 |    167056    |   189161

9  | 42:02.12 |  5:09.54 |    189162    |   212390

10  | 47:11.66 |  5:04.62 |    212391    |   235252

11  | 52:16.53 |  4:47.48 |    235253    |   256825

12  | 57:04.26 |  4:39.35 |    256826    |   277785

13  | 61:43.61 |  4:20.32 |    277786    |   297317

14  | 66:04.18 |  5:53.33 |    297318    |   323825
Range status and errors

Selected range

Filename F:\试音发烧\群星 – 旅途诱惑专业中文的高\群星 – 旅途诱惑专业中文的高.wav

Peak level 100.0 %

Extraction speed 2.6 X

Range quality 99.9 %

Copy CRC 3B13AB0D

Copy OK

No errors occurred

End of status report

 

群星 - 旅途诱惑专业中文的高



时间: 2014年10月11日下午13:19  |  
作者:
LEAVE A REPLY

loading